#TITLE:Innocent Starter;
#SUBTITLE:- Mahou Shoujo Lyrical Nanoha Opening;
#ARTIST:Mizuki Nana;
#TITLETRANSLIT:;
#SUBTITLETRANSLIT:;
#ARTISTTRANSLIT:;
#CREDIT:Lisek;
#BANNER:bn.jpg;
#BACKGROUND:bg.jpg;
#LYRICSPATH:Nanoha OP.lrc;
#CDTITLE:cdtitle.gif;
#MUSIC:01 - innocent starter (TV-Size).mp3;
#OFFSET:1.190;
#SAMPLESTART:59.920;
#SAMPLELENGTH:29.920;
#SELECTABLE:YES;
#BPMS:0.000=132.000;
#STOPS:39.500=0.460
;
#BGCHANGES:5.000=Nanoha video.avi=1.000=1=0=0,
226.000=bg.jpg=1.000=1=0=1,
99999=-nosongbg-=1.000=0=0=0 // don't automatically add -songbackground-
;
// cache tags:
#FIRSTBEAT:5.000;
#LASTBEAT:226.000;
#SONGFILENAME:songs/Otaku's Dream 3rd Anime Mix/[Lisek] Innocent Starter - Mahou Shoujo Lyrical Nanoha OP/Nanoha OP.sm;
#HASMUSIC:1;
#HASBANNER:1;
#MUSICLENGTH:109.071;
// end cache tags

//---------------dance-single - ----------------
#NOTES:
     dance-single:
     :
     Beginner:
     1:
     0.079,0.103,0.009,0.055,0.000,53.000,1.000,6.000,0.000,0.000:
0000
0000
0000
0000
,
0000
2000
0000
0000
,
0000
3100
0000
0000
,
0000
2000
0000
0000
,
0000
3001
0000
0000
,
0000
0002
0000
0000
,
0000
1003
0000
0000
,
0000
0002
0000
0000
,
0000
0013
0000
0000
,
0000
0000
0000
0000
,
0001
0000
0000
0000
,
1000
0000
0000
0000
,
0001
0000
0000
0000
,
0010
0000
0000
0000
,
0001
0000
0000
0000
,
0100
0000
0000
0000
,
0010
0000
0000
0000
,
1000
0000
0000
0000
,
0100
0000
0000
0000
,
1000
0000
0000
0000
,
0010
0000
0000
0000
,
0100
0000
0000
0000
,
0010
0000
0000
0000
,
1000
0000
0000
0000
,
0100
0000
0000
0000
,
1000
0000
0000
0000
,
0010
0000
0000
0000
,
0100
0000
0000
0000
,
0001
0000
0000
0000
,
0010
0000
0000
0000
,
0001
0000
0000
0000
,
0100
0000
0000
0000
,
0010
0000
0000
0000
,
1000
0000
0000
0000
,
0100
0000
0000
0000
,
1000
0000
0000
0000
,
0010
0000
0000
0000
,
0100
0000
0000
0000
,
0001
0000
0000
0000
,
0010
0000
0000
0000
,
0001
0000
0000
0000
,
0100
0000
0000
0000
,
0010
0000
0000
0000
,
1000
0000
0000
0000
,
0100
0000
0000
0000
,
1000
0000
0000
0000
,
0010
0000
0000
0000
,
0100
0000
0000
0000
,
0001
0000
0000
0000
,
0010
0000
0000
0000
,
0001
0000
0000
0000
,
1000
0000
0000
0000
,
0010
0000
0000
0000
,
1000
0000
0000
0000
,
2002
0000
0000
0000
,
0000
0000
0000
0000
,
3003
0000
0000
0000
;

//---------------dance-single - ----------------
#NOTES:
     dance-single:
     :
     Easy:
     3:
     0.231,0.231,0.009,0.119,0.000,162.000,1.000,13.000,0.000,0.000:
0000
0000
0000
0000
,
0000
1000
0100
1000
,
0010
1000
0000
0000
,
0000
0001
0010
0001
,
0100
0001
0000
0000
,
0000
1000
0100
0010
,
0001
1000
0000
0000
,
0000
0001
0010
0100
,
1000
0001
0000
0000
,
0000
0000
0000
0000
,
0000
1000
0100
1000
,
0010
0100
0001
0100
,
0010
0000
0010
1000
,
0100
0000
0010
0001
,
0010
0001
0100
0010
,
1000
0001
0100
0001
,
0010
0000
0001
0000
,
0100
0010
1000
0000
,
0000
1000
0001
1000
,
0100
1000
0001
1000
,
0100
0000
1000
0001
,
0010
0000
0010
0001
,
0010
0001
1000
0100
,
0010
0001
1000
0100
,
0010
0000
0001
0000
,
1000
0010
0100
0001
,
2000
0000
3000
0000
,
0001
0100
0010
1000
,
0200
0000
0300
0000
,
1000
0100
0010
0001
,
0010
0001
0020
0030
,
0001
0100
0010
0100
,
0020
0000
0000
0230
0000
0000
0300
0000
,
0000
0000
0000
0000
,
0001
0010
0001
0010
,
0001
0100
0001
0100
,
0001
1000
0001
1000
,
0002
0000
2003
0000
,
3001
0010
0001
0010
,
0001
0100
0001
0100
,
0001
1000
0001
1000
,
0002
0000
0003
0000
,
1000
0100
1000
0100
,
1000
0010
1000
0010
,
1000
0001
1000
0001
,
2000
0000
3002
0000
,
1003
0100
1000
0100
,
1000
0010
1000
0010
,
2000
0000
0000
0000
,
3001
0010
0001
0010
,
0001
0010
0100
1000
,
0001
0010
0100
1000
,
0001
1000
0001
1000
,
0001
0010
0001
0000
,
2002
0000
0000
0000
,
0000
0000
0000
0000
,
3003
0000
0000
0000
;

//---------------dance-single - ----------------
#NOTES:
     dance-single:
     :
     Medium:
     5:
     0.269,0.304,0.046,0.128,0.005,186.000,5.000,14.000,0.000,0.000:
0000
0000
0000
0000
,
0000
1000
0001
1000
,
0010
1001
0000
0000
,
0000
0001
0100
0001
,
0010
0101
0000
0000
,
0000
1000
0010
1000
,
0100
1010
0000
0000
,
0000
0001
0010
0001
,
0100
0012
0000
0000
,
0000
0000
0000
0000
0000
0000
0000
0003
,
1000
0000
0010
0000
1000
0000
1000
0001
,
1000
0000
0001
0000
0010
0000
0001
1000
,
0001
0000
0000
1000
0100
0000
1000
0000
,
0100
0000
0000
0010
0000
0000
0010
0000
,
0010
0000
0001
0000
0010
0000
0001
1000
,
0001
0000
1000
0000
0100
0000
1000
0001
,
1000
0000
0000
0001
1000
0000
0100
0000
,
1000
0000
0000
0010
0000
0000
1000
0000
,
1000
0000
0001
0000
0100
0000
0001
0010
,
0001
0000
1000
0000
0100
0000
1000
0010
,
1000
0000
0000
0001
0100
0000
0001
0000
,
0100
0000
0000
0001
0000
0000
1000
0000
,
1000
0000
0001
0000
0100
0000
0010
1000
,
0010
0000
1000
0000
0001
0000
0010
0001
,
0010
0000
0000
0001
0010
0000
0001
0000
,
1000
0001
0001
1000
,
2000
0000
0000
3000
,
0001
0000
0010
0000
0001
0000
1000
0001
,
2000
0000
0000
3000
,
0001
0000
0100
0000
0001
0000
1000
0010
,
0000
1000
1000
0000
,
1000
0100
1000
0000
0100
0000
0010
0000
,
0200
0000
2300
0000
,
3001
0000
0000
0000
,
1001
0000
0001
0000
0001
1000
0001
0000
,
1000
0000
0010
0000
1000
0001
1000
0000
,
0010
1000
0001
0100
,
0002
0000
0000
0203
0000
0000
0000
0302
,
0000
0000
0003
1000
,
0001
0000
1000
0000
0100
0000
1000
0001
,
1000
0000
0100
0000
1000
0000
0100
1000
,
0200
0000
0000
1300
,
0001
0000
0100
0000
0010
0100
0010
0000
,
1000
0000
0001
0000
0100
0010
0100
0000
,
0001
1000
0100
1000
,
0020
0000
0000
0230
0000
0000
0000
0302
,
0000
0000
0003
1000
,
0010
0000
0000
0000
1000
0000
0000
0000
0010
0000
0000
0100
0000
0000
0020
0000
,
0000
0000
0000
0000
0000
0000
0000
0030
,
0000
2000
0000
0000
0000
0000
0000
0000
,
0000
0000
0000
0000
0000
0000
0000
3000
,
0000
0001
1000
0001
,
1000
0001
1000
0000
0010
0000
0100
0000
,
0001
1000
0001
0000
0100
0000
0010
0000
,
1000
0001
1000
0010
0000
0100
0000
0001
,
0000
1000
0001
0000
0000
0000
0000
0000
;

//---------------dance-single - ----------------
#NOTES:
     dance-single:
     :
     Hard:
     7:
     0.330,0.387,0.046,0.183,0.023,227.000,5.000,20.000,0.000,0.000:
0000
0000
0000
0000
,
0000
0000
1000
0001
1000
0010
1000
0001
,
1000
0010
2000
0000
0000
0000
0000
0000
,
0000
0000
3001
0100
0001
0010
0001
0100
,
0001
0010
0002
0000
0000
0000
0000
0000
,
0000
0000
1003
0100
1000
0010
1000
0100
,
1000
0010
2000
0000
0000
0000
0000
0000
,
0000
0000
3001
0100
0001
0010
0001
0100
,
0001
0010
0002
0000
0000
0000
0000
0000
,
0000
0000
0000
0000
0000
0000
0000
0003
,
1000
0000
0001
0100
0001
0010
0001
0100
,
0001
0000
1000
0100
1000
0010
1000
0100
,
1000
0000
0000
0001
1000
0000
0100
0000
,
1000
0100
0000
1000
0010
0000
1000
0001
,
0000
0000
0001
0100
0001
0010
0001
0100
,
0001
0000
1000
0100
1000
0010
1000
0100
,
1000
0000
0000
0001
1000
0000
0100
0000
,
0010
0000
0001
0020
0000
0000
0000
0000
,
0030
0000
0001
0100
0010
1000
0100
0010
,
0001
0000
1000
0010
0100
0001
0010
0100
,
1000
0000
0000
0001
1000
0000
0100
0000
,
0010
0000
0001
0000
0010
0000
0001
1000
,
0000
0000
1000
0100
1000
0100
1000
0010
,
1000
0000
0001
0100
0001
0100
0001
0010
,
0001
0000
0000
1000
0001
0000
0010
0000
,
0100
1000
0001
1000
,
2002
0000
0000
0000
0000
3003
0000
1000
,
0100
0000
1000
0000
0001
1000
0001
1000
,
0200
0000
0000
0000
0000
0300
0000
1000
,
0010
0000
0100
0001
0000
0010
0001
0100
,
0000
0010
1000
0200
0000
0000
0000
0000
,
0310
0001
0100
0010
,
2000
0000
0002
0000
,
3003
0000
0000
0000
,
1000
0000
0100
0000
1000
0010
1000
0000
,
0001
0000
0100
0000
0001
0010
0001
1000
,
0000
0000
0000
0000
0100
0000
0000
0000
0010
0000
0000
0000
0001
0000
0000
0100
,
0000
0000
0010
0000
0000
0000
1000
0000
0000
0001
0000
0000
0000
0000
2000
0000
,
0000
0000
0000
0000
3000
0001
0010
0100
,
1000
0001
0100
0010
,
1000
0000
0001
0100
0000
0100
0002
0000
,
2003
0000
3000
1000
,
0001
0000
1000
0000
0001
1000
0001
0100
,
0000
0000
0001
0000
0100
0000
0001
0100
,
0000
0000
0001
0000
0010
0000
0001
0100
,
0000
0010
0000
0000
0000
0000
1000
0000
0000
0000
0100
0000
0000
0000
2000
0000
,
0000
0000
0000
0000
3000
0001
0010
0100
,
1000
0000
0000
0000
0001
0000
0000
0000
0100
0000
0000
0010
0000
0000
2000
0000
,
0000
0000
0000
0000
0000
0000
0000
3000
,
0000
0001
0010
0100
0000
1000
0001
2000
,
0000
0000
0000
0000
0000
0000
0000
3000
,
0000
0000
0001
0000
0010
0000
0100
0000
1000
0000
0000
1000
0000
0000
0020
0000
,
0000
0000
0000
0000
,
0000
0000
0030
0000
,
1000
0010
0100
0001
0000
1100
0000
0011
,
0000
1001
2002
0000
0000
0000
0000
0000
,
0000
3003
0000
0000
;

//---------------dance-single - ----------------
#NOTES:
     dance-single:
     :
     Challenge:
     9:
     0.495,0.492,0.440,0.229,0.083,305.000,48.000,25.000,0.000,0.000:
0000
0000
0000
0000
,
0000
0000
1000
0100
1000
0010
1000
0100
,
1000
0010
2001
0000
0001
0000
0001
0000
,
0001
0000
3001
0010
0001
0100
0001
0010
,
0001
0100
1002
0000
1000
0000
1000
0000
,
1000
0000
1003
0010
1000
0001
1000
0010
,
1000
0001
2100
0000
0100
0000
0100
0000
,
0100
0000
3001
1000
0001
0010
0001
1000
,
0001
0010
0102
0000
0100
0000
0100
0100
,
0100
0000
1000
0000
1000
0000
0100
0103
,
1001
0000
0000
0000
1000
0000
0001
1000
0000
0000
0010
0000
1000
0000
0100
0000
,
1001
0000
0000
0000
0001
0000
0100
0010
0000
0000
1000
0000
0100
0000
1000
0000
,
1001
0000
0000
0000
0000
0000
0001
0100
0001
0000
1000
0000
0100
0000
1000
0000
,
0010
0101
0000
0101
1100
0000
1001
0101
,
0000
0000
0000
0000
1000
0000
0001
1000
0000
0000
0010
0000
0100
0000
0001
0000
,
0110
0000
0000
0000
1000
0000
0001
0100
0000
0000
0010
0000
1000
0000
0100
0000
,
1001
0000
0000
0001
1000
0010
0000
1000
,
0100
0010
0001
1000
0000
0000
1010
0000
,
1001
0000
0000
0000
0001
0000
0100
0001
0000
0000
1000
0000
0001
0000
0010
0000
,
1001
0000
0000
0000
1000
0000
0100
1000
0000
0000
0010
0000
1000
0000
0010
0000
,
1001
0000
0000
0000
0000
0000
0001
0100
0001
0000
1000
0000
0100
0000
1000
0000
,
0100
0000
0101
0110
0000
0000
0110
1010
,
0000
0000
0000
0000
1000
0000
0001
1000
0000
0000
0010
0000
0100
0000
0001
0000
,
1001
0000
0000
0000
0100
0000
1000
0100
0000
0000
0010
0000
0100
0000
1000
0000
,
1001
0000
0000
1000
0100
0010
0000
0001
,
0000
0100
0001
0100
0101
0000
1001
0000
,
0102
0000
0100
0000
0100
0000
0003
1100
,
0110
0000
0110
1100
0000
1000
0001
0100
,
0020
0000
1000
0000
0000
0000
0030
1010
,
1100
0000
1100
1010
0000
0001
0100
0010
,
0000
1000
0100
2000
0000
0000
0000
3001
,
0000
1000
0001
1000
0000
1000
0100
0010
,
0002
0000
0000
0000
0000
0000
1003
0001
2000
0000
0000
0000
0000
0000
3000
0000
,
1001
0000
0011
0001
,
1000
0000
0000
0000
0001
0000
1000
0001
0000
0000
1000
0000
0100
0000
1000
0000
,
0000
0000
0001
0000
0010
0000
0001
0100
0000
0000
0010
0000
1000
0000
0100
0000
,
0000
1000
0001
0100
0010
1000
0100
0020
,
0000
0032
0000
0203
0000
0320
0000
2030
,
0000
0000
3001
0000
0000
0001
1000
0010
,
0100
0000
0100
0010
0000
0100
0001
0010
,
0001
0000
0000
0000
0001
0000
1000
0000
0000
0000
1000
0000
0001
1000
0002
0000
,
1000
0000
1000
0000
1000
0000
1003
0100
,
1000
0000
0000
0000
0010
0000
1000
0100
0000
0000
1000
0000
0010
0000
0100
0000
,
0000
0000
0001
0000
0100
0000
0010
0100
0000
0000
0001
0000
1000
0000
0001
0000
,
0000
1000
0100
1000
0010
1000
0001
0200
,
0000
0302
0000
0023
0000
0230
0000
2300
,
0000
0000
0000
0000
0000
3001
1000
0001
,
0100
0000
0010
0000
1000
0000
0100
0000
1100
0000
0000
1010
0000
0000
2100
0000
,
0100
0000
0000
0100
0000
0000
3100
0000
,
0000
0001
0100
0010
0000
1000
0100
2000
,
0001
0000
0000
0001
0000
0000
3001
0000
,
0000
0000
1000
0000
0100
0000
0010
0000
0001
0000
0000
0010
0000
0000
0200
0000
,
0010
0001
0010
0001
,
0010
0000
0001
0000
0310
0000
1000
0001
,
1100
0110
1001
1100
0000
0101
0000
1100
,
0000
0101
2002
0000
0000
0000
0000
0000
,
0000
0000
3003
0000
;
